Если Вы хотите скачивать или обмениваться порно с нашего торрента или если Вас раздражает всплывающая реклама, просто зарегистрируйтесь и войдите на сайт.

9 Мая

Няшка - вкусняшка с бойфрендом (5 роликов) [2014 г., Amateur, Oral Sex, Dogging, CamRip]

Ответить на тему
 

Лучшая помощь нашему сайту от Вас-это если Вы расскажете о нем своим друзьям

Автор Сообщение

Dievas ®

Стаж: 3 года 1 месяц

Сообщений: 1057

Пост 19-Дек-2014 14:24

[Цитировать]

-Няшка - вкусняшка с бойфрендом (5 роликов)--
Страна: Россия
Год выпуска: 2014 г.
Жанр: Amateur, Oral Sex, Dogging
Студия: Home video
Режиссер: Неизвестен
Продолжительность: 00:53 + 00:47 + 00:25 + 01:22 + 00:41
Оригинальный аудиопоток: русский-В ролях: Неизвестный парень и симпатичная девушка / Unknown guy and pretty girl
-Описание: Видео симпатичной девушки с отличной фигурой и роскошными длинными волосами из российской провинции. Съемка от первого лица, ведется парнем.
-Качество видео: CamRip
Контейнер: MP4
Видео кодек: H.264
Аудио кодек: AAC
Видео: MP4 16:9 1280х720 4500 Kbps 25.000 fps
Аудио: AAC 2 channel 64.1 Kbps 22.05KHz
Cубтитры: отсутствуют

Media Info

Общее
Полное имя : D:\Файлы с Интернета\Вкусняшка\1.mp4
Формат : MPEG-4
Профиль формата : Base Media / Version 2
Идентификатор кодека : mp42
Размер файла : 28,3 Мбайт
Продолжительность : 52 с.
Режим общего битрейта : Переменный
Общий поток : 4507 Кбит/сек
Дата кодирования : UTC 2014-07-16 10:01:50
Дата пометки : UTC 2014-07-16 10:01:50
Видео
Идентификатор : 201
Формат : AVC
Формат/Информация : Advanced Video Codec
Профиль формата : High@L3.1
Параметр CABAC формата : Да
Параметр ReFrames формата : 4 кадра
Идентификатор кодека : avc1
Идентификатор кодека/Информация : Advanced Video Coding
Продолжительность : 52 с.
Битрейт : 4500 Кбит/сек
Максимальный битрейт : 5353 Кбит/сек
Ширина : 1280 пикселей
Высота : 720 пикселей
Соотношение сторон : 16:9
Rotation : 90°
Режим частоты кадров : Постоянный
Частота кадров : 25,000 кадров/сек
Цветовое пространство : YUV
Субдискретизация насыщенности : 4:2:0
Битовая глубина : 8 бит
Тип развёртки : Прогрессивная
Бит/(Пиксели*Кадры) : 0.195
Размер потока : 27,9 Мбайт (99%)
Библиотека кодирования : x264 core 136
Настройки программы : cabac=1 / ref=3 / deblock=1:0:0 / analyse=0x3:0x113 / me=hex / subme=7 / psy=1 / psy_rd=1.00:0.00 / mixed_ref=1 / me_range=16 / chroma_me=1 / trellis=1 / 8x8dct=1 / cqm=0 / deadzone=21,11 / fast_pskip=1 / chroma_qp_offset=-2 / threads=8 / lookahead_threads=1 / sliced_threads=0 / nr=0 / decimate=1 / interlaced=0 / bluray_compat=0 / constrained_intra=0 / bframes=3 / b_pyramid=2 / b_adapt=1 / b_bias=0 / direct=1 / weightb=1 / open_gop=0 / weightp=2 / keyint=250 / keyint_min=25 / scenecut=40 / intra_refresh=0 / rc_lookahead=40 / rc=abr / mbtree=1 / bitrate=4500 / ratetol=1.0 / qcomp=0.60 / qpmin=0 / qpmax=69 / qpstep=4 / ip_ratio=1.40 / aq=1:1.00
Дата пометки : UTC 2014-07-16 10:01:50
Аудио
Идентификатор : 101
Формат : AAC
Формат/Информация : Advanced Audio Codec
Профиль формата : LC
Идентификатор кодека : 40
Продолжительность : 52 с.
Продолжительность оригинала : 52 с.
Вид битрейта : Переменный
Битрейт : 64,4 Кбит/сек
Максимальный битрейт : 75,7 Кбит/сек
Каналы : 2 канала
Channel(s)_Original : 1 канал
Расположение каналов : Front: C
Частота : 22,05 КГц
Метод сжатия : С потерями
Размер потока : 413 Кбайт (1%)
Размер потока оригинала : 414 Кбайт (1%)
Дата пометки : UTC 2014-07-16 10:01:50
Прочее #1
Идентификатор : 2
Тип : Object description
Формат : System
Идентификатор кодека : 1
Продолжительность : 1 с. 0 мс.
Дата кодирования : UTC 2014-07-16 10:01:50
Дата пометки : UTC 2014-07-16 10:01:50
Прочее #2
Идентификатор : 1
Тип : Scene description
Формат : System Core
Идентификатор кодека : 2
Продолжительность : 1 с. 0 мс.
Дата кодирования : UTC 2014-07-16 10:01:50
Дата пометки : UTC 2014-07-16 10:01:50

Доп. информация

Ролики короткие, но стоящие. Девушка - атас.
Два последних ролика более низшего качества, но не менее хороши.
Приятного просмотра!
[Профиль] [ЛС]
Показать сообщения:    
Ответить на тему

Текущее время: Сегодня 23:32

Часовой пояс: GMT



Вы не можете начинать темы
Вы не можете отвечать на сообщения
Вы не можете редактировать свои сообщения
Вы не можете удалять свои сообщения
Вы не можете голосовать в опросах
Вы не можете прикреплять файлы к сообщениям
Вы не можете скачивать файлы
Нас ищут в сети по таким ключевым словам как: ПОРНО, ТОРРЕНТЫ ПОРНОФИЛЬМОВ, ПОРНОТОРЕНТ, ЛЮБИТЕЛЬСКОЕ ПОРНО, СКАЧАТЬ ПОРНО, ПОРНОТРЕКЕР, 3D порно, НЕТРАДИЦИОННОЕ ПОРНО, ФЕТИШ